<?xml version="1.0" standalone="no"?>
<!DOCTYPE svg PUBLIC "-//W3C//DTD SVG 1.1//EN" "http://www.w3.org/Graphics/SVG/1.1/DTD/svg11.dtd" >
<svg xmlns="http://www.w3.org/2000/svg">
<metadata></metadata>
<defs>
<font id="blackplotanregular" horiz-adv-x="1102" >
<font-face units-per-em="2048" ascent="1638" descent="-410" />
<missing-glyph horiz-adv-x="443" />
<glyph unicode="&#xd;" horiz-adv-x="508" />
<glyph horiz-adv-x="1468" />
<glyph horiz-adv-x="1468" />
<glyph unicode=" "  horiz-adv-x="443" />
<glyph unicode="&#x09;" horiz-adv-x="443" />
<glyph unicode="&#xa0;" horiz-adv-x="443" />
<glyph unicode="!" horiz-adv-x="682" d="M67 994q0 243 258 243t258 -242q0 -51 -12 -113q-19 -107 -84 -285q-64 -178 -71 -215h-183q-6 37 -71 215q-64 178 -84 285q-11 61 -11 112zM134 163q0 76 54 130t130 54t130 -54t54 -130t-54 -130t-130 -54t-130 54t-54 130z" />
<glyph unicode="&#x22;" horiz-adv-x="1114" d="M58 1212h432l-47 -495h-338zM595 1212h432l-47 -495h-338z" />
<glyph unicode="#" horiz-adv-x="1146" d="M26 316v233h214l23 112h-157v233h205l66 317h267l-66 -317h97l65 317h267l-65 -317h166v-233h-214l-24 -112h158v-233h-206l-65 -316h-267l65 316h-96l-66 -316h-267l66 316h-166zM507 549h96l24 112h-97z" />
<glyph unicode="$" horiz-adv-x="1072" d="M25 752v151q0 261 333 312v152h323v-153q274 -43 319 -234v-207h-424v131q0 19 -59 21q-60 0 -60 -21v-114q49 -20 175 -56q121 -34 179 -58q198 -81 198 -231v-151q0 -259 -328 -310v-153h-323v153q-279 41 -325 234v207h424v-131q0 -27 60 -28q59 0 59 28v114 q-49 19 -174 55q-121 34 -180 59q-197 82 -197 230z" />
<glyph unicode="%" horiz-adv-x="1697" d="M33 709v263q0 121 70 188q75 72 221 72q145 0 220 -72q71 -67 71 -188v-263q0 -121 -71 -187q-75 -72 -220 -72q-146 0 -221 72q-70 66 -70 187zM289 681q0 -36 35 -36t35 36v320q0 36 -35 36t-35 -36v-320zM415 0l551 1211h304l-552 -1211h-303zM1070 237v264 q0 120 70 187q75 72 221 72q145 0 220 -72q70 -67 70 -187v-264q0 -120 -70 -187q-75 -71 -220 -71q-146 0 -221 71q-70 67 -70 187zM1325 209q0 -36 36 -36q35 0 35 36v321q0 36 -35 36q-36 0 -36 -36v-321z" />
<glyph unicode="&#x26;" horiz-adv-x="1337" d="M20 278q0 42 16 85q44 118 195 206q23 13 59 34q-147 186 -147 340q0 41 11 81q59 208 414 208q177 0 291 -66q105 -61 130 -164q10 -35 10 -68q0 -74 -47 -143q-67 -116 -215 -208q60 -57 123 -107q82 86 171 199q63 -37 273 -161q-113 -142 -193 -224q48 -33 86 -56 q53 -31 102 -56l-194 -232l-240 139l-5 4q-178 -103 -378 -110q-17 -1 -34 -1q-286 0 -392 176q-36 61 -36 124zM430 348q19 -87 96 -87q38 0 90 21q-114 91 -151 127q-35 -33 -35 -61zM470 929q0 -49 89 -150q80 97 80 147q0 51 -86 51q-83 0 -83 -48z" />
<glyph unicode="'" horiz-adv-x="566" d="M58 1212h432l-47 -495h-338z" />
<glyph unicode="(" horiz-adv-x="630" d="M148 97v1018q0 305 406 305v-202q-23 0 -50 -14q-33 -17 -33 -43v-1110q0 -25 33 -43q27 -15 50 -15v-200q-406 0 -406 304z" />
<glyph unicode=")" horiz-adv-x="648" d="M75 -7q23 0 49 15q33 18 33 43v1110q0 26 -33 43q-26 14 -49 14v202q406 0 406 -305v-1018q0 -304 -406 -304v200z" />
<glyph unicode="*" horiz-adv-x="786" d="M21 1018l135 100q66 -21 170 -130q-85 142 -90 185l134 88l147 -85q-1 -63 -83 -186q123 117 166 135l135 -88l-44 -152q-25 -8 -61 -8q-63 0 -162 21q162 -69 194 -101l-51 -142l-174 -9q-41 51 -54 194q-24 -159 -47 -197h-167l-63 147q42 50 189 106 q-135 -22 -194 -22q-18 0 -29 2z" />
<glyph unicode="+" horiz-adv-x="1038" d="M61 482v248h311v280h276v-280h311v-248h-311v-280h-276v280h-311z" />
<glyph unicode="," horiz-adv-x="542" d="M70 171q0 71 58.5 122t141.5 51q84 0 142 -51t59 -120q-2 -170 -188 -440l-184 66q72 153 74 220q-24 12 -45 30q-58 51 -58 122z" />
<glyph unicode="-" horiz-adv-x="780" d="M89 330v242h585v-242h-585z" />
<glyph unicode="." horiz-adv-x="523" d="M70 163q0 76 54 130t130 54t130 -54t54 -130t-54 -130t-130 -54t-130 54t-54 130z" />
<glyph unicode="/" horiz-adv-x="747" d="M65 0l311 1212h332l-312 -1212h-331z" />
<glyph unicode="0" horiz-adv-x="1088" d="M92 393v423q0 193 113 300q120 116 353 116q234 0 354 -116q113 -107 113 -300v-423q0 -193 -113 -300q-120 -114 -354 -114q-233 0 -353 114q-113 107 -113 300zM502 348q0 -27 18 -42q16 -15 38 -15q23 0 39 15q18 15 18 42v515q0 27 -18 42q-16 14 -39 14 q-22 0 -38 -14q-18 -15 -18 -42v-515z" />
<glyph unicode="1" horiz-adv-x="919" d="M19 963q364 18 583 248h220v-1211h-410v716q-167 -48 -345 -64z" />
<glyph unicode="2" horiz-adv-x="1059" d="M40 0v215q24 25 126 120q112 106 175 169q222 193 222 287v119q0 28 -56 28q-57 0 -57 -28v-131h-398v223q65 230 455 230q218 0 337 -75q129 -82 129 -247v-127q0 -116 -148 -268q-106 -108 -241 -196h389v-319h-933z" />
<glyph unicode="3" horiz-adv-x="1063" d="M77 199v233h387v-84q0 -37 7 -43q8 -7 50 -7q41 0 49 7q7 6 7 43v74q0 28 -8 32q-7 5 -49 5h-80v292h80q42 0 49 5q8 5 8 33v74q0 37 -7 43t-49 6t-50 -6q-7 -6 -7 -43v-84h-387v232q78 221 444 221q239 0 353 -92q113 -91 113 -277v-17q0 -188 -159 -241 q159 -53 159 -240v-17q0 -186 -113 -277q-114 -92 -353 -92q-366 0 -444 220z" />
<glyph unicode="4" horiz-adv-x="1101" d="M31 160v191l391 860h500v-732h132v-319h-132v-160h-410v160h-481zM427 479h85v280z" />
<glyph unicode="5" horiz-adv-x="1061" d="M79 191v241h384v-84q0 -37 8 -43q7 -7 49 -7t49 7q7 6 7 43v138q0 36 -8 44q-7 6 -48 6t-49 -5q-7 -6 -8 -35l-384 29l78 686h813v-320h-494l-13 -108q85 20 169 20q21 0 42 -1q169 -9 236 -70q76 -70 76 -246v-138q0 -186 -113 -277q-114 -92 -353 -92q-360 0 -441 212z " />
<glyph unicode="6" horiz-adv-x="1081" d="M94 348v515q0 186 113 277q114 92 353 92q366 0 444 -221v-232h-388l1 84q0 37 -7 43q-8 6 -50 6t-49 -6t-7 -43v-162q84 19 167 19q22 0 43 -1q171 -9 237 -69q76 -67 76 -244v-58q0 -186 -113 -277q-114 -92 -354 -92q-239 0 -353 92q-113 91 -113 277zM504 348 q0 -37 7 -43q8 -7 49 -7q42 0 50 7q7 6 7 43v58q0 37 -7 44q-8 7 -50 7t-49 -7t-7 -42v-60z" />
<glyph unicode="7" horiz-adv-x="967" d="M23 891v320h933v-194q-417 -650 -417 -1017h-434q0 230 110 481q70 159 232 410h-424z" />
<glyph unicode="8" horiz-adv-x="1078" d="M89 348v17q0 187 159 240q-159 53 -159 241v17q0 186 113 277q114 92 353 92q240 0 354 -92q113 -91 113 -277v-17q0 -188 -160 -241q160 -53 160 -240v-17q0 -186 -113 -277q-114 -92 -354 -92q-239 0 -353 92q-113 91 -113 277zM499 348q0 -37 7 -43q7 -7 49 -7t50 7 q7 6 7 43v74q0 28 -8 32q-7 5 -48 5q-42 0 -49 -4q-8 -5 -8 -33v-74zM499 789q0 -28 8 -33q7 -5 48 -5q42 0 49 5q8 5 8 33v74q0 37 -7 43t-50 6q-42 0 -49 -6t-7 -43v-74z" />
<glyph unicode="9" horiz-adv-x="1084" d="M81 804v59q0 186 113 277q114 92 353 92q240 0 354 -92q113 -91 113 -277v-515q0 -186 -113 -277q-114 -92 -354 -92q-365 0 -443 220v233h388l-1 -84q0 -37 7 -43q7 -7 49 -7q43 0 50 7q7 6 7 43v162q-84 -19 -168 -19q-21 0 -43 1q-170 9 -236 68q-76 68 -76 244z M491 804q0 -37 7 -43q7 -7 49 -7q43 0 50 7q7 6 7 41v61q0 37 -7 43q-8 6 -50 6t-49 -6t-7 -43v-59z" />
<glyph unicode=":" horiz-adv-x="436" d="M31 163q0 76 54 130t130 54t130 -54t54 -130t-54 -130t-130 -54t-130 54t-54 130zM31 716q0 76 54 130t130 54t130 -54t54 -130t-54 -130t-130 -54t-130 54t-54 130z" />
<glyph unicode=";" horiz-adv-x="483" d="M26 217q0 74 61 127t148 53t148 -53q60 -53 61 -125q-2 -179 -172 -402h-245q80 96 106 241q-25 12 -46 31q-61 53 -61 128zM45 710q0 76 54 130t130 54t130 -54t54 -130t-54 -130t-130 -54t-130 54t-54 130z" />
<glyph unicode="&#x3c;" horiz-adv-x="971" d="M17 492v227l898 292v-294l-417 -111l417 -111v-294z" />
<glyph unicode="=" horiz-adv-x="990" d="M37 323v248h898v-248h-898zM37 642v249h898v-249h-898z" />
<glyph unicode="&#x3e;" horiz-adv-x="967" d="M35 201v294l417 111l-417 111v294l898 -292v-227z" />
<glyph unicode="?" horiz-adv-x="1011" d="M15 785v83q0 187 118 278q121 92 372 92q252 0 372 -92q119 -91 119 -278v-67q0 -134 -165 -240q-100 -64 -112 -74q-68 -38 -79 -105h-374q-17 35 -17 68q0 101 153 178q90 58 112 76q50 43 50 84v80q0 37 -7 44q-8 6 -52 6t-51 -6q-8 -7 -8 -44v-83h-431zM264 163 q0 76 54 130t130 54t130 -54t54 -130t-54 -130t-130 -54t-130 54t-54 130z" />
<glyph unicode="@" horiz-adv-x="1605" d="M22 410q0 286 225 490q226 203 544 203q319 0 544 -203q226 -204 226 -490q0 -174 -99 -277q-87 -92 -229 -109q-29 -4 -59 -4q-100 0 -193 42q-124 55 -172 158q-31 -37 -76 -54q-48 -20 -110 -20q-108 9 -150.5 63t-45.5 126q-1 8 -1 15q0 64 26 123q82 194 303 206 q16 1 33 1q158 0 260 -78q-51 -106 -51 -193q0 -29 5 -54q19 -95 88 -131q29 -15 56 -15q36 0 66 26q61 50 61 172v3q0 179 -141 306q-142 127 -341 127t-340 -127t-141 -306q0 -180 141 -306q141 -127 340 -127q87 0 166 26l107 -241q-131 -44 -273 -44q-318 0 -544 202 q-225 203 -225 490zM678 377q0 -51 51 -53h9q32 0 40 15l28 148q-16 12 -43 12q-10 0 -20 -1q-43 -6 -61 -88q-4 -18 -4 -33z" />
<glyph unicode="A" horiz-adv-x="1113" d="M5 0l189 1211h708l189 -1211h-437l-13 108h-186l-13 -108h-437zM491 426h114l-57 489z" />
<glyph unicode="B" horiz-adv-x="1055" d="M35 0v1211h468q492 0 492 -335v-30q-4 -188 -145 -241q168 -53 168 -240v-31q0 -334 -492 -334h-491zM467 318h59q44 0 52 5q8 4 8 26v73q0 28 -8 32q-8 5 -52 5h-59v-141zM467 751h59q44 0 52 5t8 33v73q0 21 -9 26q-8 3 -51 3h-59v-140z" />
<glyph unicode="C" horiz-adv-x="1028" d="M27 348v515q0 186 119 277q120 92 373 92q391 0 470 -228v-225h-411v84q0 37 -8 43q-7 6 -51 6q-45 0 -52 -6q-8 -6 -8 -43v-515q0 -37 8 -43q7 -7 52 -7q44 0 51 7q8 6 8 43v84h411v-225q-79 -228 -470 -228q-253 0 -373 92q-119 91 -119 277z" />
<glyph unicode="D" horiz-adv-x="1072" d="M35 0v1211h492q252 0 372 -92q119 -90 119 -277v-473q0 -188 -119 -278q-120 -91 -372 -91h-492zM467 318h60q43 0 51 7t8 44v473q0 37 -8 43t-51 6h-60v-573z" />
<glyph unicode="E" horiz-adv-x="881" d="M35 0v1211h800v-320h-368v-126h320v-319h-320v-128h368v-318h-800z" />
<glyph unicode="F" horiz-adv-x="857" d="M35 0v1211h800v-320h-368v-126h320v-319h-320v-446h-432z" />
<glyph unicode="G" horiz-adv-x="1042" d="M27 348v515q0 186 119 277q120 92 373 92q391 0 470 -228v-225h-411v84q0 37 -8 43q-7 6 -51 6q-45 0 -52 -6q-8 -6 -8 -43v-515q0 -37 8 -43q7 -7 52 -7q44 0 51 7q8 6 8 43v63h-48v253h459v-457q-79 -228 -470 -228q-253 0 -373 92q-119 91 -119 277z" />
<glyph unicode="H" horiz-adv-x="1086" d="M35 0v1211h432v-446h119v446h432v-1211h-432v446h-119v-446h-432z" />
<glyph unicode="I" horiz-adv-x="535" d="M35 0v1211h432v-1211h-432z" />
<glyph unicode="J" horiz-adv-x="1025" d="M9 231v236h412v-97q0 -38 8 -44q7 -7 51 -7q45 0 52 8q8 6 8 43v863h432v-863q0 -187 -119 -277q-120 -93 -373 -93q-394 0 -471 231z" />
<glyph unicode="K" horiz-adv-x="1108" d="M35 0v1212h432v-416l147 416h418l-221 -600l291 -612h-462l-173 415v-415h-432z" />
<glyph unicode="L" horiz-adv-x="870" d="M35 0v1212h432v-893h368v-319h-800z" />
<glyph unicode="M" horiz-adv-x="1533" d="M35 0v1212h489l226 -654l227 654h488v-1212h-419v506l-163 -506h-265l-164 506v-506h-419z" />
<glyph unicode="N" horiz-adv-x="1101" d="M35 0v1212h369l196 -420v420h433v-1212h-369l-197 419v-419h-432z" />
<glyph unicode="O" horiz-adv-x="1064" d="M27 349v514q0 187 119 277q120 93 373 93q252 0 372 -93q119 -90 119 -277v-514q0 -187 -119 -277q-120 -93 -372 -93q-253 0 -373 93q-119 90 -119 277zM459 349q0 -37 8 -43q7 -8 52 -8q44 0 51 7q8 6 8 44v514q0 37 -8 44q-7 6 -51 6q-45 0 -52 -6q-8 -7 -8 -44v-514z " />
<glyph unicode="P" horiz-adv-x="1056" d="M35 0v1212h491q492 0 492 -335v-179q0 -176 -126 -267q-125 -90 -366 -90h-59v-341h-432zM467 660h59q44 0 52 5q8 6 8 33v164q0 22 -8 27q-8 3 -52 3h-59v-232z" />
<glyph unicode="Q" horiz-adv-x="1069" d="M32 349v514q0 187 119 277q120 93 373 93q252 0 372 -93q119 -90 119 -277v-514q0 -330 -384 -365q31 -32 150 -32h205v-256q-330 0 -446 45q-155 59 -159 247q-349 46 -349 361zM464 349q0 -37 8 -43q7 -8 52 -8q44 0 51 7q8 6 8 44v514q0 37 -8 44q-7 6 -51 6 q-45 0 -52 -6q-8 -7 -8 -44v-514z" />
<glyph unicode="R" horiz-adv-x="1066" d="M35 0v1211h468q492 0 492 -335v-146q-4 -188 -145 -241q110 -53 137 -203l56 -286h-432l-41 275q-14 66 -103 68v-343h-432zM467 635h59q44 0 52 5t8 33v189q0 21 -9 26q-8 3 -51 3h-59v-256z" />
<glyph unicode="S" horiz-adv-x="1045" d="M24 759v151q0 166 137 247q125 75 355 76q426 0 483 -246v-208h-424v131q0 22 -54 22h-5q-60 0 -60 -22v-114q49 -19 175 -55q121 -34 179 -58q198 -82 198 -231v-151q0 -166 -137 -247q-125 -75 -355 -75q-426 0 -484 246v207h424v-131q0 -28 60 -28h4q55 0 55 28v113 q-49 20 -174 56q-121 34 -180 59q-197 82 -197 230z" />
<glyph unicode="T" horiz-adv-x="1031" d="M19 892v320h983v-320h-275v-892h-433v892h-275z" />
<glyph unicode="U" horiz-adv-x="1071" d="M33 349v863h432v-863q0 -37 8 -43q7 -8 52 -8q44 0 51 7q8 6 8 44v863h432v-863q0 -187 -119 -277q-120 -93 -372 -93q-253 0 -373 93q-119 90 -119 277z" />
<glyph unicode="V" horiz-adv-x="1098" d="M9 1211h437l106 -915l106 915h437l-189 -1211h-708z" />
<glyph unicode="W" horiz-adv-x="1847" d="M3 1211h454l100 -806l163 806h411l163 -806l100 806h454l-285 -1211h-537l-100 490l-101 -490h-537z" />
<glyph unicode="X" horiz-adv-x="1144" d="M23 0l265 606l-265 606h454l94 -344l93 344h454l-265 -606l265 -606h-454l-93 344l-94 -344h-454z" />
<glyph unicode="Y" horiz-adv-x="1052" d="M-10 1212h454l94 -344l93 344h454l-331 -708v-504h-433v504z" />
<glyph unicode="Z" horiz-adv-x="962" d="M26 0v195l382 697h-382v320h898v-195l-382 -698h382v-319h-898z" />
<glyph unicode="[" horiz-adv-x="621" d="M75 -197v1603h471v-190h-148v-1222h148v-191h-471z" />
<glyph unicode="\" horiz-adv-x="793" d="M75 1212h332l311 -1212h-331z" />
<glyph unicode="]" horiz-adv-x="621" d="M75 -6h148v1222h-148v190h471v-1603h-471v191z" />
<glyph unicode="^" horiz-adv-x="1143" d="M75 650l357 562h279l357 -562h-361l-135 261l-136 -261h-361z" />
<glyph unicode="_" horiz-adv-x="1207" d="M75 -59h1057v-235h-1057v235z" />
<glyph unicode="`" horiz-adv-x="555" d="M75 1210h292l113 -310h-240z" />
<glyph unicode="a" horiz-adv-x="1076" d="M34 197v68q0 116 186 174q57 18 161 32.5t205 43.5v73q0 18 -60 18q-59 -1 -59 -18v-59h-424v100q0 95 139 161t344 66q221 0 349 -52q143 -58 143 -173v-631h-216l-138 119q-48 -77 -95 -103q-66 -37 -205 -37q-176 0 -241 33q-89 45 -89 185zM467 301q0 -15 18 -16h5 q15 0 36 9q60 25 60 58v44q-119 -24 -119 -67v-28z" />
<glyph unicode="b" d="M66 -1v1164l432 53v-419q86 58 221 58q189 0 262 -74q68 -71 68 -247v-234q0 -175 -76 -247q-78 -74 -268 -74h-4q-161 0 -272 81l-147 -61h-216zM498 296q6 -24 58 -24h4q57 2 57 28v234q0 32 -57 32h-6q-50 0 -56 -28v-242z" />
<glyph unicode="c" horiz-adv-x="1023" d="M32 348v139q0 187 119 278q120 92 372 92q253 0 373 -92q54 -41 84 -103v-179h-397v29q0 36 -8 43q-7 6 -52 6q-44 0 -51 -6q-8 -7 -8 -43v-188q0 -37 8 -44q7 -6 51 -6q45 0 52 6q8 7 8 44v29h397v-180q-30 -61 -84 -102q-120 -92 -373 -92q-252 0 -372 92 q-119 90 -119 277z" />
<glyph unicode="d" horiz-adv-x="1081" d="M41 300v234q0 174 75 247q78 74 269 74q115 0 207 -41v348l432 54v-1217h-308l-59 100q-89 -120 -283 -120h-3q-189 0 -262 74q-68 71 -68 247zM473 300q0 -31 57 -32h6q50 0 56 28v242q-6 23 -55 23h-7q-57 -1 -57 -27v-234z" />
<glyph unicode="e" horiz-adv-x="1038" d="M32 348v139q0 187 119 277q120 93 373 93q391 0 470 -228v-239h-530v-111q0 -37 8 -43q7 -6 52 -6q40 0 49 6t10 37v56h411v-123q-79 -227 -470 -227q-253 0 -373 92q-119 90 -119 277zM464 495h119v47q-1 23 -11 28q-9 4 -48 4q-45 0 -52 -6q-8 -7 -8 -30v-43z" />
<glyph unicode="f" horiz-adv-x="784" d="M30 589v248h110v26q0 231 190 317q119 54 322 54q65 0 138 -5l-52 -318q-59 7 -92 7h-22q-51 -9 -51 -55v-26h163v-248h-163v-589h-433v589h-110z" />
<glyph unicode="g" horiz-adv-x="1091" d="M39 336v200q0 175 76 247q78 75 268 75q165 0 276 -82l147 61h216v-871q0 -187 -119 -277q-120 -92 -372 -92q-253 0 -373 92q-54 41 -84 103v180h397v-29q0 -38 8 -44q7 -7 52 -7q44 0 51 7q8 6 8 44v130q-86 -58 -221 -58q-189 0 -261 75q-69 71 -69 246zM471 336 q0 -30 57 -32h3q54 0 59 29v207q-5 24 -58 24h-4q-57 -2 -57 -28v-200z" />
<glyph unicode="h" horiz-adv-x="1107" d="M66 0v1164l432 48v-414q86 58 221 58q189 0 262 -74q68 -71 68 -247v-535h-432v535q0 32 -57 32h-6q-50 0 -56 -28v-539h-432z" />
<glyph unicode="i" horiz-adv-x="541" d="M52 0v836h432v-836h-432zM70 1059q0 70 58 120.5t140 50.5t140 -50.5t58 -120.5q0 -71 -58 -121t-140 -50t-140 50t-58 121z" />
<glyph unicode="j" horiz-adv-x="574" d="M-72 -394l52 317q8 -1 37 -1q44 0 51 6q8 7 8 44v864h432v-864q0 -187 -119 -278q-120 -91 -372 -91q-47 0 -89 3zM94 1052q0 70 58 120.5t140 50.5t140 -50.5t58 -120.5q0 -71 -58 -121t-140 -50t-140 50t-58 121z" />
<glyph unicode="k" horiz-adv-x="1066" d="M66 0v1164l432 48v-657l119 282h411l-202 -421l223 -416h-432l-119 280v-280h-432z" />
<glyph unicode="l" horiz-adv-x="555" d="M66 0v1164l432 48v-1212h-432z" />
<glyph unicode="m" horiz-adv-x="1644" d="M56 0v837h216l166 -83q91 102 271 102q214 0 282 -100q91 100 269 100q189 0 261 -74q69 -71 69 -247v-535h-432v535q0 32 -57 32h-6q-51 0 -56 -28v-539h-432v535q0 32 -57 32h-6q-50 0 -56 -27v-540h-432z" />
<glyph unicode="n" horiz-adv-x="1094" d="M56 0v837h216l166 -83q91 102 271 102q189 0 262 -74q68 -71 68 -247v-535h-432v535q0 32 -57 32h-6q-50 0 -56 -27v-540h-432z" />
<glyph unicode="o" horiz-adv-x="1055" d="M32 348v139q0 187 119 278q120 92 373 92q252 0 372 -92q119 -91 119 -278v-139q0 -187 -119 -277q-120 -92 -372 -92q-253 0 -373 92q-119 90 -119 277zM464 324q0 -37 8 -44q7 -6 52 -6q44 0 51 6q8 7 8 44v188q0 36 -8 43q-7 6 -51 6q-45 0 -52 -6q-8 -7 -8 -43v-188z " />
<glyph unicode="p" horiz-adv-x="1085" d="M55 -367v1204h216l147 -61q112 82 276 82q190 0 268 -75q76 -72 76 -247v-234q0 -176 -68 -247q-73 -74 -262 -74q-135 0 -221 58v-406h-432zM487 298q6 -28 59 -28h3q57 1 57 32v234q0 26 -57 28h-4q-52 0 -58 -24v-242z" />
<glyph unicode="q" horiz-adv-x="1092" d="M40 302v234q0 175 76 247q78 75 268 75q165 0 276 -82l147 61h216v-1204h-432v406q-86 -58 -221 -58q-189 0 -261 74q-69 71 -69 247zM472 302q0 -31 57 -32h3q54 0 59 28v242q-5 24 -58 24h-4q-57 -2 -57 -28v-234z" />
<glyph unicode="r" horiz-adv-x="1077" d="M56 0v837h213l163 -83q90 102 267 102q343 -1 343 -261v-163l-452 -62v170q0 27 -54 27q-33 0 -46 -12q-7 -6 -9 -15v-540h-425z" />
<glyph unicode="s" horiz-adv-x="1009" d="M32 525v106q0 225 477 225q192 0 299 -34q168 -53 168 -193v-75h-343v34q0 18 -124 18q-83 -1 -83 -18v-18q72 -13 194 -39q117 -24 173 -41q192 -76 192 -180v-106q0 -225 -476 -225q-413 0 -469 172v130h346v-33q0 -25 119 -25h4q71 0 71 25v27q-62 13 -183 39 q-117 24 -174 41q-191 66 -191 170z" />
<glyph unicode="t" horiz-adv-x="792" d="M31 583v253h88v151l432 41v-192h186v-253h-186v-224q0 -55 64 -55q39 0 102 20l48 -308q-176 -37 -303 -37q-343 0 -343 263v341h-88z" />
<glyph unicode="u" horiz-adv-x="1095" d="M51 300v536h432v-536q0 -32 60 -32q59 0 59 32v536h432v-837h-216l-165 82q-92 -102 -272 -102q-189 0 -262 74q-68 71 -68 247z" />
<glyph unicode="v" horiz-adv-x="1139" d="M12 837h436l115 -520l116 520h436l-306 -837h-491z" />
<glyph unicode="w" horiz-adv-x="1570" d="M14 837h436l73 -520l115 520h286l116 -520l69 520h436l-260 -837h-406l-98 352l-98 -352h-406z" />
<glyph unicode="x" horiz-adv-x="1066" d="M33 0l224 416l-224 421h432l72 -219l71 219h432l-224 -421l224 -416h-432l-71 218l-72 -218h-432z" />
<glyph unicode="y" horiz-adv-x="1132" d="M12 836h436l77 -350l154 350h431l-533 -1204h-427l165 376z" />
<glyph unicode="z" horiz-adv-x="965" d="M42 0v195l315 322h-315v320h898v-196l-315 -322h315v-319h-898z" />
<glyph unicode="{" horiz-adv-x="638" d="M75 505v202q23 0 50 13q32 18 32 44v351q0 305 406 305v-202q-23 0 -49 -14q-33 -17 -33 -43v-351q0 -130 -71 -204q71 -75 71 -204v-351q0 -25 33 -43q26 -15 49 -15v-200q-406 0 -406 304v351q0 25 -32 43q-27 14 -50 14z" />
<glyph unicode="|" horiz-adv-x="473" d="M75 -338v1751h323v-1751h-323z" />
<glyph unicode="}" horiz-adv-x="638" d="M75 -7q23 0 49 15q33 18 33 43v351q0 129 71 204q-71 74 -71 204v351q0 26 -33 43q-26 14 -49 14v202q406 0 406 -305v-351q0 -26 32 -44q27 -13 50 -13v-202q-23 0 -50 -14q-32 -18 -32 -43v-351q0 -304 -406 -304v200z" />
<glyph unicode="~" horiz-adv-x="1037" d="M75 477q0 110 48 185q64 101 196 101q110 0 215 -47.5t136 -47.5q17 0 29 5q44 16 47 90h215q1 -14 1 -29q0 -116 -44 -186q-61 -99 -202 -99q-114 0 -217 46t-135 46q-17 0 -29 -5q-44 -14 -46 -84h-213q-1 12 -1 25z" />
<glyph unicode="&#xa1;" horiz-adv-x="845" d="M343 -179q0 51 12 113q19 107 84 285q64 178 71 215h183q6 -37 71 -215q64 -178 84 -285q11 -61 11 -112q0 -243 -258 -243t-258 242zM424 653q0 76 54 130t130 54t130 -54t54 -130t-54 -130t-130 -54t-130 54t-54 130z" />
<glyph unicode="&#xa2;" horiz-adv-x="1103" d="M68 348v139q0 187 119 278q108 83 322 91l47 181h332l-56 -219q58 -21 100 -53q54 -41 84 -103v-179h-397v29q0 36 -8 43q-7 6 -52 6q-44 0 -51 -6q-8 -7 -8 -43v-188q0 -37 8 -44q7 -6 51 -6q45 0 52 6q8 7 8 44v29h397v-180q-30 -61 -84 -102q-106 -81 -316 -91 l-40 -155h-331l49 191q-63 21 -107 55q-119 90 -119 277z" />
<glyph unicode="&#xa3;" horiz-adv-x="1009" d="M75 0v319q130 0 130 140q0 21 -2 45h-128v182h102q-26 132 -26 177q0 187 96 278q99 92 304 92q319 0 383 -228v-188h-334v46q0 37 -6 44q-7 6 -43 6q-54 0 -58 -66v-11q0 -43 17 -150h252v-182h-232q1 -20 1 -39q0 -78 -31 -148l3 2h403v-319h-831z" />
<glyph unicode="&#xa4;" horiz-adv-x="1148" d="M14 256l108 102q-37 74 -37 179v139q0 104 37 178l-108 101l188 175l123 -116q103 32 252 32q145 0 247 -31l122 115l188 -175l-104 -98q38 -75 38 -181v-139q0 -107 -39 -182l105 -99l-188 -175l-125 117q-100 -30 -244 -30q-147 0 -249 31l-126 -118zM517 513 q0 -37 8 -44q7 -6 52 -6q44 0 51 6q8 7 8 44v188q0 36 -8 43q-7 6 -51 6q-45 0 -52 -6q-8 -7 -8 -43v-188z" />
<glyph unicode="&#xa5;" horiz-adv-x="1151" d="M75 1212h415l85 -344l86 344h415l-243 -568h120v-160h-180v-77h180v-160h-180v-247h-395v247h-180v160h180v77h-180v160h120z" />
<glyph unicode="&#xa6;" horiz-adv-x="473" d="M75 141v753h323v-753h-323zM75 -240v753h323v-753h-323z" />
<glyph unicode="&#xa7;" horiz-adv-x="1004" d="M53 394v132q0 99 55 164q-55 55 -55 128v132q0 145 120 216q110 66 311 67q373 0 423 -215v-183h-371v115q0 19 -48 19h-4q-53 0 -53 -19v-100q43 -16 154 -48q106 -30 157 -51q173 -72 173 -202v-132q0 -99 -55 -164q55 -54 55 -128v-132q0 -146 -120 -217 q-109 -65 -311 -66q-373 0 -423 215v182h372v-114q0 -20 47 -20h4q53 0 53 20v100q-43 16 -153 48q-106 30 -157 51q-174 71 -174 202zM433 427q29 -11 88 -30q15 6 15 20v99q-29 11 -89 30q-14 -6 -14 -20v-99z" />
<glyph unicode="&#xa8;" horiz-adv-x="775" d="M78 1066q0 53 37.5 91t90.5 38t91 -38t38 -91t-38 -90.5t-91 -37.5t-90.5 37.5t-37.5 90.5zM442 1066q0 54 37.5 91.5t90.5 37.5t91 -37.5t38 -91.5q0 -53 -38 -90.5t-91 -37.5t-90.5 37.5t-37.5 90.5z" />
<glyph unicode="&#xa9;" horiz-adv-x="1607" d="M101 605q0 259 204 443t492 184t492 -184t204 -443q0 -260 -204 -443t-492 -183t-492 183t-204 443zM305 605q0 -183 144 -313t348 -130t348 130t144 313q0 184 -144 313q-144 130 -348 130t-348 -130q-144 -129 -144 -313zM553 475v261q0 187 249 187q199 0 239 -115 v-115h-208v43q0 19 -4 21q-4 4 -27 4q-22 0 -26 -4q-4 -2 -4 -21v-261q0 -19 4 -23q4 -3 26 -3q23 0 27 3q4 4 4 23v42h208v-114q-40 -116 -239 -116q-249 0 -249 188z" />
<glyph unicode="&#xaa;" horiz-adv-x="823" d="M70 246v204h653v-204h-653zM70 738v49q0 83 123 125q37 13 106 23.5t135 30.5v53q0 13 -39 13q-39 -1 -39 -13v-43h-280v72q0 68 92 116q91 47 227 47q146 0 230 -37q94 -42 94 -124v-453h-142l-91 85q-32 -55 -63 -74q-43 -26 -135 -26q-116 0 -159 23q-59 33 -59 133z M356 813q0 -11 12 -12h3q10 0 24 7q39 18 39 41v32q-78 -17 -78 -48v-20z" />
<glyph unicode="&#xab;" horiz-adv-x="1231" d="M76 492v227l575 374v-305l-267 -182l267 -183v-299zM582 492v227l575 374l-267 -487l267 -482z" />
<glyph unicode="&#xac;" horiz-adv-x="1174" d="M119 482v248h898v-451h-248v203h-650z" />
<glyph unicode="&#xad;" horiz-adv-x="780" d="M89 330v242h585v-242h-585z" />
<glyph unicode="&#xae;" horiz-adv-x="1542" d="M75 605q0 259 204 443t492 184t492 -184t204 -443q0 -260 -204 -443t-492 -183t-492 183t-204 443zM279 605q0 -183 144 -313t348 -130t348 130t144 313q0 184 -144 313q-144 130 -348 130t-348 -130q-144 -129 -144 -313zM547 315v605h234q246 0 246 -167v-73 q-2 -94 -73 -121q55 -26 69 -101l28 -143h-216l-21 137q-7 33 -51 34v-171h-216zM763 632h29q22 0 26 3q4 2 4 16v95q0 10 -4 13q-4 1 -26 1h-29v-128z" />
<glyph unicode="&#xaf;" horiz-adv-x="880" d="M75 971v189h730v-189h-730z" />
<glyph unicode="&#xb0;" horiz-adv-x="830" d="M75 905q0 127 100 217q98 90 239 90t241 -90t100 -217t-100 -215q-100 -90 -241 -90t-239 90q-100 88 -100 215zM264 905q0 -55 44 -95q45 -40 106 -40q63 0 108 40q44 40 44 95q0 57 -44 97q-45 40 -108 40q-61 0 -106 -40q-44 -40 -44 -97z" />
<glyph unicode="&#xb1;" horiz-adv-x="1174" d="M119 0v248h311v234h-311v248h311v280h276v-280h311v-248h-311v-234h311v-248h-898z" />
<glyph unicode="&#xb2;" horiz-adv-x="803" d="M75 369v151q17 18 88 84q79 74 123 118q155 136 155 201v84q0 19 -39 19q-40 0 -40 -19v-92h-279v156q46 161 319 161q153 0 236 -53q90 -56 90 -172v-89q0 -81 -103 -188q-75 -75 -169 -136h272v-225h-653z" />
<glyph unicode="&#xb3;" horiz-adv-x="787" d="M75 510v162h271v-59q0 -26 5 -30t35 -4q29 0 34 4t5 30v52q0 19 -6 23q-4 4 -34 4h-56v204h56q30 0 34 4q6 2 6 22v51q0 26 -5 31q-5 4 -34 4q-30 0 -35 -4q-5 -5 -5 -31v-58h-271v163q55 154 311 154q167 0 247 -64q79 -64 79 -195v-11q0 -131 -111 -169 q111 -37 111 -168v-12q0 -130 -79 -194q-80 -64 -247 -64q-256 0 -311 155z" />
<glyph unicode="&#xb4;" horiz-adv-x="555" d="M75 900l113 310h292l-165 -310h-240z" />
<glyph unicode="&#xb5;" horiz-adv-x="1133" d="M75 -287v1124h432v-536q0 -32 60 -32q59 0 59 32v536h432v-837h-216l-165 82q-64 -71 -170 -92v-277h-432z" />
<glyph unicode="&#xb6;" horiz-adv-x="1229" d="M75 755v235q0 112 79 166q76 52 232 55h768v-1211h-323v966h-122v-966h-323v533q-156 3 -232 55q-79 54 -79 167z" />
<glyph unicode="&#xb7;" horiz-adv-x="518" d="M84 583q0 64 46 110t111 46q64 0 110 -46t46 -110q0 -65 -46 -111t-110 -46q-65 0 -111 46t-46 111z" />
<glyph unicode="&#xb8;" horiz-adv-x="660" d="M75 -349l70 144q53 -16 111 -16q11 0 22 1q91 6 98 58q-3 55 -178 66l47 96h38q176 0 255 -70q47 -42 47 -94q0 -32 -17 -67q-45 -93 -174 -133q-62 -19 -129 -19q-90 0 -190 34z" />
<glyph unicode="&#xb9;" horiz-adv-x="712" d="M75 1038q255 13 408 174h154v-848h-287v501q-117 -33 -241 -44z" />
<glyph unicode="&#xba;" horiz-adv-x="797" d="M68 214v205h655v-205h-655zM68 780v209q0 112 79 167t246 55q166 0 245 -55t79 -167v-209q0 -113 -79 -167q-79 -55 -245 -55q-167 0 -246 55q-79 54 -79 167zM353 765q0 -22 5 -26t35 -4q29 0 33 4q6 4 6 26v239q0 22 -6 26q-4 3 -33 3q-30 0 -35 -3q-5 -4 -5 -26v-239z " />
<glyph unicode="&#xbb;" horiz-adv-x="1231" d="M76 124l267 482l-267 487l575 -374v-227zM582 124v299l267 183l-267 182v305l575 -374v-227z" />
<glyph unicode="&#xbf;" horiz-adv-x="1032" d="M-12 15q0 134 165 240q100 64 112 74q68 38 79 105h374q17 -35 17 -68q0 -101 -153 -178q-90 -58 -112 -76q-50 -43 -50 -84v-80q0 -37 7 -44q8 -6 52 -6t51 6q8 7 8 44v83h431v-83q0 -187 -118 -278q-121 -92 -372 -92q-252 0 -372 92q-119 91 -119 278v67zM352 653 q0 76 54 130t130 54t130 -54t54 -130t-54 -130t-130 -54t-130 54t-54 130z" />
<glyph unicode="&#xc0;" d="M-10 0l189 1211h708l189 -1211h-437l-13 108h-186l-13 -108h-437zM263 1585h292l113 -310h-240zM476 426h114l-57 489z" />
<glyph unicode="&#xc1;" d="M-10 0l189 1211h708l189 -1211h-437l-13 108h-186l-13 -108h-437zM398 1275l113 310h292l-165 -310h-240zM476 426h114l-57 489z" />
<glyph unicode="&#xc2;" d="M-10 0l189 1211h708l189 -1211h-437l-13 108h-186l-13 -108h-437zM201 1275l113 310h439l113 -310h-240l-92 175l-93 -175h-240zM476 426h114l-57 489z" />
<glyph unicode="&#xc3;" d="M-10 0l189 1211h708l189 -1211h-437l-13 108h-186l-13 -108h-437zM253 1315v20q0 98 30 164q37 81 116 81q82 0 139.5 -38t90.5 -38q11 0 18 3q28 15 30 78h136v-26q-9 -234 -135 -249q-89 0 -148 37q-75 46 -96 46q-10 0 -17 -2q-28 -14 -29 -76h-135zM476 426h114 l-57 489z" />
<glyph unicode="&#xc4;" d="M-10 0l189 1211h708l189 -1211h-437l-13 108h-186l-13 -108h-437zM224 1440q0 53 37.5 91t90.5 38t91 -38t38 -91t-38 -90.5t-91 -37.5t-90.5 37.5t-37.5 90.5zM476 426h114l-57 489zM588 1440q0 54 37.5 91.5t90.5 37.5t91 -37.5t38 -91.5q0 -53 -38 -90.5t-91 -37.5 t-90.5 37.5t-37.5 90.5z" />
<glyph unicode="&#xc5;" d="M-10 0l189 1211h197l-2 2q-67 62 -67 154q0 90 67 153q64 64 160 64q94 0 159 -64q67 -63 67 -153q0 -92 -67 -154l-2 -2h196l189 -1211h-437l-13 108h-186l-13 -108h-437zM456 1367q0 -31 22 -54q23 -20 55 -20t55 20q23 23 23 54q0 30 -23 53q-23 20 -55 20t-55 -20 q-22 -23 -22 -53zM476 426h114l-57 489z" />
<glyph unicode="&#xc6;" horiz-adv-x="1570" d="M-10 0l189 1211h1297v-320h-539l20 -126h471v-319h-422l20 -128h450v-318h-837l-13 108h-186l-13 -108h-437zM476 426h114l-57 489z" />
<glyph unicode="&#xc7;" horiz-adv-x="1101" d="M60 348v515q0 186 119 277q120 92 373 92q391 0 470 -228v-225h-411v84q0 37 -8 43q-7 6 -51 6q-45 0 -52 -6q-8 -6 -8 -43v-515q0 -37 8 -43q7 -7 52 -7q44 0 51 7q8 6 8 43v84h411v-225q-69 -199 -377 -224q64 -18 104 -53q47 -42 47 -94q0 -32 -17 -67 q-45 -93 -174 -133q-62 -19 -129 -19q-90 0 -190 34l70 144q53 -16 111 -16q11 0 22 1q91 6 98 58q-3 55 -178 66l39 79q-175 16 -269 88q-119 91 -119 277z" />
<glyph unicode="&#xc8;" horiz-adv-x="972" d="M78 0v1211h800v-320h-368v-126h320v-319h-320v-128h368v-318h-800zM208 1584h292l113 -310h-240z" />
<glyph unicode="&#xc9;" horiz-adv-x="972" d="M78 0v1211h800v-320h-368v-126h320v-319h-320v-128h368v-318h-800zM343 1274l113 310h292l-165 -310h-240z" />
<glyph unicode="&#xca;" horiz-adv-x="972" d="M78 0v1211h800v-320h-368v-126h320v-319h-320v-128h368v-318h-800zM146 1274l113 310h439l113 -310h-240l-92 175l-93 -175h-240z" />
<glyph unicode="&#xcb;" horiz-adv-x="972" d="M78 0v1211h800v-320h-368v-126h320v-319h-320v-128h368v-318h-800zM168 1440q0 53 37.5 91t90.5 38t91 -38t38 -91t-38 -90.5t-91 -37.5t-90.5 37.5t-37.5 90.5zM532 1440q0 54 37.5 91.5t90.5 37.5t91 -37.5t38 -91.5q0 -53 -38 -90.5t-91 -37.5t-90.5 37.5t-37.5 90.5z " />
<glyph unicode="&#xcc;" horiz-adv-x="639" d="M24 1584h292l113 -310h-240zM78 0v1211h432v-1211h-432z" />
<glyph unicode="&#xcd;" horiz-adv-x="639" d="M78 0v1211h432v-1211h-432zM159 1274l113 310h292l-165 -310h-240z" />
<glyph unicode="&#xce;" horiz-adv-x="639" d="M-38 1274l113 310h439l113 -310h-240l-92 175l-93 -175h-240zM78 0v1211h432v-1211h-432z" />
<glyph unicode="&#xcf;" horiz-adv-x="639" d="M-16 1440q0 53 37.5 91t90.5 38t91 -38t38 -91t-38 -90.5t-91 -37.5t-90.5 37.5t-37.5 90.5zM78 0v1211h432v-1211h-432zM348 1440q0 54 37.5 91.5t90.5 37.5t91 -37.5t38 -91.5q0 -53 -38 -90.5t-91 -37.5t-90.5 37.5t-37.5 90.5z" />
<glyph unicode="&#xd0;" horiz-adv-x="1164" d="M0 488v235h78v488h492q252 0 372 -92q119 -90 119 -277v-473q0 -188 -119 -278q-120 -91 -372 -91h-492v488h-78zM510 318h60q43 0 51 7t8 44v473q0 37 -8 43t-51 6h-60v-168h66v-235h-66v-170z" />
<glyph unicode="&#xd1;" horiz-adv-x="1183" d="M78 0v1212h369l196 -420v420h433v-1212h-369l-197 419v-419h-432zM297 1315v20q0 98 30 164q37 81 116 81q82 0 139.5 -38t90.5 -38q11 0 18 3q28 15 30 78h136v-26q-9 -234 -135 -249q-89 0 -148 37q-75 46 -96 46q-10 0 -17 -2q-28 -14 -29 -76h-135z" />
<glyph unicode="&#xd2;" horiz-adv-x="1148" d="M60 349v514q0 187 119 277q120 93 373 93q252 0 372 -93q119 -90 119 -277v-514q0 -187 -119 -277q-120 -93 -372 -93q-253 0 -373 93q-119 90 -119 277zM282 1584h292l113 -310h-240zM492 349q0 -37 8 -43q7 -8 52 -8q44 0 51 7q8 6 8 44v514q0 37 -8 44q-7 6 -51 6 q-45 0 -52 -6q-8 -7 -8 -44v-514z" />
<glyph unicode="&#xd3;" horiz-adv-x="1148" d="M60 349v514q0 187 119 277q120 93 373 93q252 0 372 -93q119 -90 119 -277v-514q0 -187 -119 -277q-120 -93 -372 -93q-253 0 -373 93q-119 90 -119 277zM417 1274l113 310h292l-165 -310h-240zM492 349q0 -37 8 -43q7 -8 52 -8q44 0 51 7q8 6 8 44v514q0 37 -8 44 q-7 6 -51 6q-45 0 -52 -6q-8 -7 -8 -44v-514z" />
<glyph unicode="&#xd4;" horiz-adv-x="1148" d="M60 349v514q0 187 119 277q120 93 373 93q252 0 372 -93q119 -90 119 -277v-514q0 -187 -119 -277q-120 -93 -372 -93q-253 0 -373 93q-119 90 -119 277zM219 1274l113 310h439l113 -310h-240l-92 175l-93 -175h-240zM492 349q0 -37 8 -43q7 -8 52 -8q44 0 51 7q8 6 8 44 v514q0 37 -8 44q-7 6 -51 6q-45 0 -52 -6q-8 -7 -8 -44v-514z" />
<glyph unicode="&#xd5;" horiz-adv-x="1148" d="M60 349v514q0 187 119 277q120 93 373 93q252 0 372 -93q119 -90 119 -277v-514q0 -187 -119 -277q-120 -93 -372 -93q-253 0 -373 93q-119 90 -119 277zM272 1315v20q0 98 30 164q37 81 116 81q82 0 139.5 -38t90.5 -38q11 0 18 3q28 15 30 78h136v-26 q-9 -234 -135 -249q-89 0 -148 37q-75 46 -96 46q-10 0 -17 -2q-28 -14 -29 -76h-135zM492 349q0 -37 8 -43q7 -8 52 -8q44 0 51 7q8 6 8 44v514q0 37 -8 44q-7 6 -51 6q-45 0 -52 -6q-8 -7 -8 -44v-514z" />
<glyph unicode="&#xd6;" horiz-adv-x="1148" d="M60 349v514q0 187 119 277q120 93 373 93q252 0 372 -93q119 -90 119 -277v-514q0 -187 -119 -277q-120 -93 -372 -93q-253 0 -373 93q-119 90 -119 277zM241 1440q0 53 37.5 91t90.5 38t91 -38t38 -91t-38 -90.5t-91 -37.5t-90.5 37.5t-37.5 90.5zM492 349q0 -37 8 -43 q7 -8 52 -8q44 0 51 7q8 6 8 44v514q0 37 -8 44q-7 6 -51 6q-45 0 -52 -6q-8 -7 -8 -44v-514zM605 1440q0 54 37.5 91.5t90.5 37.5t91 -37.5t38 -91.5q0 -53 -38 -90.5t-91 -37.5t-90.5 37.5t-37.5 90.5z" />
<glyph unicode="&#xd7;" horiz-adv-x="980" d="M75 407l220 198l-220 198l195 175l220 -198l220 198l195 -175l-220 -198l220 -198l-195 -176l-220 198l-220 -198z" />
<glyph unicode="&#xd8;" horiz-adv-x="1148" d="M60 349v514q0 187 119 277q111 86 336 92l23 110h332l-32 -154q49 -19 86 -48q119 -90 119 -277v-514q0 -187 -119 -277q-112 -87 -340 -93l-26 -124h-331l35 170q-47 19 -83 47q-119 90 -119 277zM492 349q0 -37 8 -43q7 -8 52 -8q44 0 51 7q8 6 8 44v514q0 37 -8 44 q-7 6 -51 6q-45 0 -52 -6q-8 -7 -8 -44v-514z" />
<glyph unicode="&#xd9;" horiz-adv-x="1157" d="M57 349v863h432v-863q0 -37 8 -43q7 -8 52 -8q44 0 51 7q8 6 8 44v863h432v-863q0 -187 -119 -277q-120 -93 -372 -93q-253 0 -373 93q-119 90 -119 277zM279 1584h292l113 -310h-240z" />
<glyph unicode="&#xda;" horiz-adv-x="1157" d="M57 349v863h432v-863q0 -37 8 -43q7 -8 52 -8q44 0 51 7q8 6 8 44v863h432v-863q0 -187 -119 -277q-120 -93 -372 -93q-253 0 -373 93q-119 90 -119 277zM414 1274l113 310h292l-165 -310h-240z" />
<glyph unicode="&#xdb;" horiz-adv-x="1157" d="M57 349v863h432v-863q0 -37 8 -43q7 -8 52 -8q44 0 51 7q8 6 8 44v863h432v-863q0 -187 -119 -277q-120 -93 -372 -93q-253 0 -373 93q-119 90 -119 277zM216 1274l113 310h439l113 -310h-240l-92 175l-93 -175h-240z" />
<glyph unicode="&#xdc;" horiz-adv-x="1157" d="M57 349v863h432v-863q0 -37 8 -43q7 -8 52 -8q44 0 51 7q8 6 8 44v863h432v-863q0 -187 -119 -277q-120 -93 -372 -93q-253 0 -373 93q-119 90 -119 277zM238 1440q0 53 37.5 91t90.5 38t91 -38t38 -91t-38 -90.5t-91 -37.5t-90.5 37.5t-37.5 90.5zM602 1440 q0 54 37.5 91.5t90.5 37.5t91 -37.5t38 -91.5q0 -53 -38 -90.5t-91 -37.5t-90.5 37.5t-37.5 90.5z" />
<glyph unicode="&#xdd;" horiz-adv-x="1049" d="M-23 1212h454l94 -344l93 344h454l-331 -708v-504h-433v504zM390 1274l113 310h292l-165 -310h-240z" />
<glyph unicode="&#xde;" horiz-adv-x="1111" d="M78 -200v1411h432v-199h59q492 0 492 -335v-179q0 -176 -126 -267q-125 -90 -366 -90h-59v-341h-432zM510 460h59q44 0 52 5q8 6 8 33v164q0 22 -8 27q-8 3 -52 3h-59v-232z" />
<glyph unicode="&#xdf;" horiz-adv-x="1133" d="M75 0v876q22 334 491 335q469 -1 469 -335v-30q-4 -188 -145 -241q168 -53 168 -267v-348q0 -231 -190 -317q-119 -54 -322 -54q-65 0 -138 5l52 318q59 -7 92 -7h22q51 9 51 55v12h1v420q0 28 -8 32q-8 5 -52 5h-59v-459h-432zM507 751h59q44 0 52 5t8 33v73q0 21 -9 26 q-8 3 -51 3q-42 0 -50 -3q-9 -5 -9 -26v-111z" />
<glyph unicode="&#xe0;" horiz-adv-x="1158" d="M70 197v68q0 116 186 174q57 18 161 32.5t205 43.5v73q0 18 -60 18q-59 -1 -59 -18v-59h-424v100q0 95 139 161t344 66q221 0 349 -52q143 -58 143 -173v-631h-216l-138 119q-48 -77 -95 -103q-66 -37 -205 -37q-176 0 -241 33q-89 45 -89 185zM292 1210h292l113 -310 h-240zM503 301q0 -15 18 -16h5q15 0 36 9q60 25 60 58v44q-119 -24 -119 -67v-28z" />
<glyph unicode="&#xe1;" horiz-adv-x="1158" d="M70 197v68q0 116 186 174q57 18 161 32.5t205 43.5v73q0 18 -60 18q-59 -1 -59 -18v-59h-424v100q0 95 139 161t344 66q221 0 349 -52q143 -58 143 -173v-631h-216l-138 119q-48 -77 -95 -103q-66 -37 -205 -37q-176 0 -241 33q-89 45 -89 185zM427 900l113 310h292 l-165 -310h-240zM503 301q0 -15 18 -16h5q15 0 36 9q60 25 60 58v44q-119 -24 -119 -67v-28z" />
<glyph unicode="&#xe2;" horiz-adv-x="1158" d="M70 197v68q0 116 186 174q57 18 161 32.5t205 43.5v73q0 18 -60 18q-59 -1 -59 -18v-59h-424v100q0 95 139 161t344 66q221 0 349 -52q143 -58 143 -173v-631h-216l-138 119q-48 -77 -95 -103q-66 -37 -205 -37q-176 0 -241 33q-89 45 -89 185zM230 900l113 310h439 l113 -310h-240l-92 175l-93 -175h-240zM503 301q0 -15 18 -16h5q15 0 36 9q60 25 60 58v44q-119 -24 -119 -67v-28z" />
<glyph unicode="&#xe3;" horiz-adv-x="1158" d="M70 197v68q0 116 186 174q57 18 161 32.5t205 43.5v73q0 18 -60 18q-59 -1 -59 -18v-59h-424v100q0 95 139 161t344 66q221 0 349 -52q143 -58 143 -173v-631h-216l-138 119q-48 -77 -95 -103q-66 -37 -205 -37q-176 0 -241 33q-89 45 -89 185zM282 941v20q0 98 30 164 q37 81 116 81q82 0 139.5 -38t90.5 -38q11 0 18 3q28 15 30 78h136v-26q-9 -234 -135 -249q-89 0 -148 37q-75 46 -96 46q-10 0 -17 -2q-28 -14 -29 -76h-135zM503 301q0 -15 18 -16h5q15 0 36 9q60 25 60 58v44q-119 -24 -119 -67v-28z" />
<glyph unicode="&#xe4;" horiz-adv-x="1158" d="M70 197v68q0 116 186 174q57 18 161 32.5t205 43.5v73q0 18 -60 18q-59 -1 -59 -18v-59h-424v100q0 95 139 161t344 66q221 0 349 -52q143 -58 143 -173v-631h-216l-138 119q-48 -77 -95 -103q-66 -37 -205 -37q-176 0 -241 33q-89 45 -89 185zM252 1066q0 53 37.5 91 t90.5 38t91 -38t38 -91t-38 -90.5t-91 -37.5t-90.5 37.5t-37.5 90.5zM503 301q0 -15 18 -16h5q15 0 36 9q60 25 60 58v44q-119 -24 -119 -67v-28zM616 1066q0 54 37.5 91.5t90.5 37.5t91 -37.5t38 -91.5q0 -53 -38 -90.5t-91 -37.5t-90.5 37.5t-37.5 90.5z" />
<glyph unicode="&#xe5;" horiz-adv-x="1158" d="M70 197v68q0 116 186 174q57 18 161 32.5t205 43.5v73q0 18 -60 18q-59 -1 -59 -18v-59h-424v100q0 95 139 161q79 38 180 54q-62 61 -62 149q0 90 67 153q64 64 160 64q94 0 159 -64q67 -63 67 -153q0 -86 -59 -146q106 -13 181 -43q143 -58 143 -173v-631h-216 l-138 119q-48 -77 -95 -103q-66 -37 -205 -37q-176 0 -241 33q-89 45 -89 185zM485 993q0 -31 22 -54q23 -20 55 -20t55 20q23 23 23 54q0 30 -23 53q-23 20 -55 20t-55 -20q-22 -23 -22 -53zM503 301q0 -15 18 -16h5q15 0 36 9q60 25 60 58v44q-119 -24 -119 -67v-28z" />
<glyph unicode="&#xe6;" horiz-adv-x="1672" d="M70 197v68q0 116 186 174q57 18 161 32.5t205 43.5v73q0 18 -60 18q-59 -1 -59 -18v-59h-424v100q0 95 139 161t344 66q177 0 294 -33q105 34 259 34q391 0 470 -228v-239h-530v-111q0 -37 8 -43q7 -6 52 -6q40 0 49 6t10 37v56h411v-123q-79 -227 -470 -227 q-253 0 -373 92q-25 19 -45 43q-47 -73 -92 -98q-66 -37 -205 -37q-176 0 -241 33q-89 45 -89 185zM503 301q0 -15 18 -16h5q15 0 36 9q60 25 60 58v44q-119 -24 -119 -67v-28zM1055 495h119v47q-1 23 -11 28q-9 4 -48 4q-45 0 -52 -6q-8 -7 -8 -30v-43z" />
<glyph unicode="&#xe7;" horiz-adv-x="1103" d="M68 348v139q0 187 119 278q120 92 372 92q253 0 373 -92q54 -41 84 -103v-179h-397v29q0 36 -8 43q-7 6 -52 6q-44 0 -51 -6q-8 -7 -8 -43v-188q0 -37 8 -44q7 -6 51 -6q45 0 52 6q8 7 8 44v29h397v-180q-30 -61 -84 -102q-98 -75 -284 -89q63 -17 102 -52q47 -42 47 -94 q0 -32 -17 -67q-45 -93 -174 -133q-62 -19 -129 -19q-90 0 -190 34l70 144q53 -16 111 -16q11 0 22 1q91 6 98 58q-3 55 -178 66l39 80q-170 16 -262 87q-119 90 -119 277z" />
<glyph unicode="&#xe8;" horiz-adv-x="1117" d="M68 348v139q0 187 119 277q120 93 373 93q391 0 470 -228v-239h-530v-111q0 -37 8 -43q7 -6 52 -6q40 0 49 6t10 37v56h411v-123q-79 -227 -470 -227q-253 0 -373 92q-119 90 -119 277zM279 1210h292l113 -310h-240zM500 495h119v47q-1 23 -11 28q-9 4 -48 4 q-45 0 -52 -6q-8 -7 -8 -30v-43z" />
<glyph unicode="&#xe9;" horiz-adv-x="1117" d="M68 348v139q0 187 119 277q120 93 373 93q391 0 470 -228v-239h-530v-111q0 -37 8 -43q7 -6 52 -6q40 0 49 6t10 37v56h411v-123q-79 -227 -470 -227q-253 0 -373 92q-119 90 -119 277zM414 900l113 310h292l-165 -310h-240zM500 495h119v47q-1 23 -11 28q-9 4 -48 4 q-45 0 -52 -6q-8 -7 -8 -30v-43z" />
<glyph unicode="&#xea;" horiz-adv-x="1117" d="M68 348v139q0 187 119 277q120 93 373 93q391 0 470 -228v-239h-530v-111q0 -37 8 -43q7 -6 52 -6q40 0 49 6t10 37v56h411v-123q-79 -227 -470 -227q-253 0 -373 92q-119 90 -119 277zM217 900l113 310h439l113 -310h-240l-92 175l-93 -175h-240zM500 495h119v47 q-1 23 -11 28q-9 4 -48 4q-45 0 -52 -6q-8 -7 -8 -30v-43z" />
<glyph unicode="&#xeb;" horiz-adv-x="1117" d="M68 348v139q0 187 119 277q120 93 373 93q391 0 470 -228v-239h-530v-111q0 -37 8 -43q7 -6 52 -6q40 0 49 6t10 37v56h411v-123q-79 -227 -470 -227q-253 0 -373 92q-119 90 -119 277zM239 1066q0 53 37.5 91t90.5 38t91 -38t38 -91t-38 -90.5t-91 -37.5t-90.5 37.5 t-37.5 90.5zM500 495h119v47q-1 23 -11 28q-9 4 -48 4q-45 0 -52 -6q-8 -7 -8 -30v-43zM603 1066q0 54 37.5 91.5t90.5 37.5t91 -37.5t38 -91.5q0 -53 -38 -90.5t-91 -37.5t-90.5 37.5t-37.5 90.5z" />
<glyph unicode="&#xec;" horiz-adv-x="582" d="M21 1210h292l113 -310h-240zM75 0v836h432v-836h-432z" />
<glyph unicode="&#xed;" horiz-adv-x="582" d="M75 0v836h432v-836h-432zM156 900l113 310h292l-165 -310h-240z" />
<glyph unicode="&#xee;" horiz-adv-x="582" d="M-41 900l113 310h439l113 -310h-240l-92 175l-93 -175h-240zM75 0v836h432v-836h-432z" />
<glyph unicode="&#xef;" horiz-adv-x="582" d="M-19 1066q0 53 37.5 91t90.5 38t91 -38t38 -91t-38 -90.5t-91 -37.5t-90.5 37.5t-37.5 90.5zM75 0v836h432v-836h-432zM345 1066q0 54 37.5 91.5t90.5 37.5t91 -37.5t38 -91.5q0 -53 -38 -90.5t-91 -37.5t-90.5 37.5t-37.5 90.5z" />
<glyph unicode="&#xf0;" horiz-adv-x="1181" d="M145 348v58q0 177 76 244q66 60 237 69q21 1 43 1q83 0 167 -19q-26 93 -84 186l-190 -117l-113 210l153 94q-46 48 -101 96l314 188q49 -48 92 -96l165 102l112 -210l-126 -78q188 -264 188 -494v-234q0 -186 -113 -277q-114 -92 -353 -92q-240 0 -354 92 q-113 91 -113 277zM555 348q0 -37 7 -43q8 -7 50 -7q41 0 49 7q7 6 7 43v60q0 35 -7 42t-49 7t-50 -7q-7 -7 -7 -44v-58z" />
<glyph unicode="&#xf1;" horiz-adv-x="1171" d="M85 0v837h216l166 -83q91 102 271 102q189 0 262 -74q68 -71 68 -247v-535h-432v535q0 32 -57 32h-6q-50 0 -56 -27v-540h-432zM297 941v20q0 98 30 164q37 81 116 81q82 0 139.5 -38t90.5 -38q11 0 18 3q28 15 30 78h136v-26q-9 -234 -135 -249q-89 0 -148 37 q-75 46 -96 46q-10 0 -17 -2q-28 -14 -29 -76h-135z" />
<glyph unicode="&#xf2;" horiz-adv-x="1131" d="M68 348v139q0 187 119 278q120 92 373 92q252 0 372 -92q119 -91 119 -278v-139q0 -187 -119 -277q-120 -92 -372 -92q-253 0 -373 92q-119 90 -119 277zM290 1210h292l113 -310h-240zM500 324q0 -37 8 -44q7 -6 52 -6q44 0 51 6q8 7 8 44v188q0 36 -8 43q-7 6 -51 6 q-45 0 -52 -6q-8 -7 -8 -43v-188z" />
<glyph unicode="&#xf3;" horiz-adv-x="1131" d="M68 348v139q0 187 119 278q120 92 373 92q252 0 372 -92q119 -91 119 -278v-139q0 -187 -119 -277q-120 -92 -372 -92q-253 0 -373 92q-119 90 -119 277zM425 900l113 310h292l-165 -310h-240zM500 324q0 -37 8 -44q7 -6 52 -6q44 0 51 6q8 7 8 44v188q0 36 -8 43 q-7 6 -51 6q-45 0 -52 -6q-8 -7 -8 -43v-188z" />
<glyph unicode="&#xf4;" horiz-adv-x="1131" d="M68 348v139q0 187 119 278q120 92 373 92q252 0 372 -92q119 -91 119 -278v-139q0 -187 -119 -277q-120 -92 -372 -92q-253 0 -373 92q-119 90 -119 277zM227 900l113 310h439l113 -310h-240l-92 175l-93 -175h-240zM500 324q0 -37 8 -44q7 -6 52 -6q44 0 51 6q8 7 8 44 v188q0 36 -8 43q-7 6 -51 6q-45 0 -52 -6q-8 -7 -8 -43v-188z" />
<glyph unicode="&#xf5;" horiz-adv-x="1131" d="M68 348v139q0 187 119 278q120 92 373 92q252 0 372 -92q119 -91 119 -278v-139q0 -187 -119 -277q-120 -92 -372 -92q-253 0 -373 92q-119 90 -119 277zM280 941v20q0 98 30 164q37 81 116 81q82 0 139.5 -38t90.5 -38q11 0 18 3q28 15 30 78h136v-26q-9 -234 -135 -249 q-89 0 -148 37q-75 46 -96 46q-10 0 -17 -2q-28 -14 -29 -76h-135zM500 324q0 -37 8 -44q7 -6 52 -6q44 0 51 6q8 7 8 44v188q0 36 -8 43q-7 6 -51 6q-45 0 -52 -6q-8 -7 -8 -43v-188z" />
<glyph unicode="&#xf6;" horiz-adv-x="1131" d="M68 348v139q0 187 119 278q120 92 373 92q252 0 372 -92q119 -91 119 -278v-139q0 -187 -119 -277q-120 -92 -372 -92q-253 0 -373 92q-119 90 -119 277zM249 1066q0 53 37.5 91t90.5 38t91 -38t38 -91t-38 -90.5t-91 -37.5t-90.5 37.5t-37.5 90.5zM500 324q0 -37 8 -44 q7 -6 52 -6q44 0 51 6q8 7 8 44v188q0 36 -8 43q-7 6 -51 6q-45 0 -52 -6q-8 -7 -8 -43v-188zM613 1066q0 54 37.5 91.5t90.5 37.5t91 -37.5t38 -91.5q0 -53 -38 -90.5t-91 -37.5t-90.5 37.5t-37.5 90.5z" />
<glyph unicode="&#xf7;" horiz-adv-x="1174" d="M119 536v136h898v-136h-898zM384 330q0 76 54 130t130 54t130 -54t54 -130t-54 -130t-130 -54t-130 54t-54 130zM384 883q0 76 54 130t130 54t130 -54t54 -130t-54 -130t-130 -54t-130 54t-54 130z" />
<glyph unicode="&#xf8;" horiz-adv-x="1131" d="M68 348v139q0 187 119 278q108 83 325 91l45 177h332l-55 -216q57 -20 98 -52q119 -91 119 -278v-139q0 -187 -119 -277q-106 -81 -314 -91l-41 -159h-331l49 194q-63 22 -108 56q-119 90 -119 277zM500 324q0 -37 8 -44q7 -6 52 -6q44 0 51 6q8 7 8 44v188q0 36 -8 43 q-7 6 -51 6q-45 0 -52 -6q-8 -7 -8 -43v-188z" />
<glyph unicode="&#xf9;" horiz-adv-x="1187" d="M90 300v536h432v-536q0 -32 60 -32q59 0 59 32v536h432v-837h-216l-165 82q-92 -102 -272 -102q-189 0 -262 74q-68 71 -68 247zM312 1210h292l113 -310h-240z" />
<glyph unicode="&#xfa;" horiz-adv-x="1187" d="M90 300v536h432v-536q0 -32 60 -32q59 0 59 32v536h432v-837h-216l-165 82q-92 -102 -272 -102q-189 0 -262 74q-68 71 -68 247zM447 900l113 310h292l-165 -310h-240z" />
<glyph unicode="&#xfb;" horiz-adv-x="1187" d="M90 300v536h432v-536q0 -32 60 -32q59 0 59 32v536h432v-837h-216l-165 82q-92 -102 -272 -102q-189 0 -262 74q-68 71 -68 247zM249 900l113 310h439l113 -310h-240l-92 175l-93 -175h-240z" />
<glyph unicode="&#xfc;" horiz-adv-x="1187" d="M90 300v536h432v-536q0 -32 60 -32q59 0 59 32v536h432v-837h-216l-165 82q-92 -102 -272 -102q-189 0 -262 74q-68 71 -68 247zM271 1066q0 53 37.5 91t90.5 38t91 -38t38 -91t-38 -90.5t-91 -37.5t-90.5 37.5t-37.5 90.5zM635 1066q0 54 37.5 91.5t90.5 37.5t91 -37.5 t38 -91.5q0 -53 -38 -90.5t-91 -37.5t-90.5 37.5t-37.5 90.5z" />
<glyph unicode="&#xfd;" horiz-adv-x="1111" d="M15 836h436l77 -350l154 350h431l-533 -1204h-427l165 376zM429 900l113 310h292l-165 -310h-240z" />
<glyph unicode="&#xfe;" horiz-adv-x="1171" d="M94 -367v1531l432 48v-395q90 41 207 41q190 0 268 -75q76 -72 76 -247v-234q0 -176 -68 -247q-73 -74 -262 -74q-135 0 -221 58v-406h-432zM526 298q6 -28 59 -28h3q57 1 57 32v234q0 26 -57 28h-4q-52 0 -58 -24v-242z" />
<glyph unicode="&#xff;" horiz-adv-x="1111" d="M15 836h436l77 -350l154 350h431l-533 -1204h-427l165 376zM254 1066q0 53 37.5 91t90.5 38t91 -38t38 -91t-38 -90.5t-91 -37.5t-90.5 37.5t-37.5 90.5zM618 1066q0 54 37.5 91.5t90.5 37.5t91 -37.5t38 -91.5q0 -53 -38 -90.5t-91 -37.5t-90.5 37.5t-37.5 90.5z" />
<glyph unicode="&#x152;" horiz-adv-x="1537" d="M60 349v514q0 187 119 277q120 93 373 93q123 0 214 -22h677v-320h-401q1 -14 1 -28v-98h352v-319h-352v-97q0 -16 -1 -31h401v-318h-681q-90 -21 -210 -21q-253 0 -373 93q-119 90 -119 277zM492 349q0 -37 8 -43q7 -8 52 -8q44 0 51 7q8 6 8 44v514q0 37 -8 44 q-7 6 -51 6q-45 0 -52 -6q-8 -7 -8 -44v-514z" />
<glyph unicode="&#x153;" horiz-adv-x="1663" d="M75 348v139q0 187 119 278q120 92 373 92q167 0 276 -40q108 40 275 40q391 0 470 -228v-192l-530 -86v-72q0 -37 8 -43q7 -6 52 -6q40 0 49 6t10 37v56h411v-123q-79 -227 -470 -227q-167 0 -276 39q-109 -39 -275 -39q-253 0 -373 92q-119 90 -119 277zM507 324 q0 -37 8 -44q7 -6 52 -6q44 0 51 6q8 7 8 44v188q0 36 -8 43q-7 6 -51 6q-45 0 -52 -6q-8 -7 -8 -43v-188zM1058 473l119 22v34q-1 23 -11 28q-9 4 -48 4q-45 0 -52 -6q-8 -7 -8 -44v-38z" />
<glyph unicode="&#x178;" horiz-adv-x="1049" d="M-23 1212h454l94 -344l93 344h454l-331 -708v-504h-433v504zM214 1440q0 53 37.5 91t90.5 38t91 -38t38 -91t-38 -90.5t-91 -37.5t-90.5 37.5t-37.5 90.5zM578 1440q0 54 37.5 91.5t90.5 37.5t91 -37.5t38 -91.5q0 -53 -38 -90.5t-91 -37.5t-90.5 37.5t-37.5 90.5z" />
<glyph unicode="&#x2c6;" horiz-adv-x="815" d="M75 900l113 310h439l113 -310h-240l-92 175l-93 -175h-240z" />
<glyph unicode="&#x2dc;" horiz-adv-x="710" d="M75 941v20q0 98 30 164q37 81 116 81q82 0 139.5 -38t90.5 -38q11 0 18 3q28 15 30 78h136v-26q-9 -234 -135 -249q-89 0 -148 37q-75 46 -96 46q-10 0 -17 -2q-28 -14 -29 -76h-135z" />
<glyph unicode="&#x2000;" horiz-adv-x="792" />
<glyph unicode="&#x2001;" horiz-adv-x="1585" />
<glyph unicode="&#x2002;" horiz-adv-x="792" />
<glyph unicode="&#x2003;" horiz-adv-x="1585" />
<glyph unicode="&#x2004;" horiz-adv-x="528" />
<glyph unicode="&#x2005;" horiz-adv-x="396" />
<glyph unicode="&#x2006;" horiz-adv-x="264" />
<glyph unicode="&#x2007;" horiz-adv-x="264" />
<glyph unicode="&#x2008;" horiz-adv-x="198" />
<glyph unicode="&#x2009;" horiz-adv-x="317" />
<glyph unicode="&#x200a;" horiz-adv-x="88" />
<glyph unicode="&#x2010;" horiz-adv-x="780" d="M89 330v242h585v-242h-585z" />
<glyph unicode="&#x2011;" horiz-adv-x="780" d="M89 330v242h585v-242h-585z" />
<glyph unicode="&#x2012;" horiz-adv-x="780" d="M89 330v242h585v-242h-585z" />
<glyph unicode="&#x2013;" horiz-adv-x="1219" d="M89 330v242h1024v-242h-1024z" />
<glyph unicode="&#x2014;" horiz-adv-x="2243" d="M89 330v242h2048v-242h-2048z" />
<glyph unicode="&#x2018;" horiz-adv-x="582" d="M132 792q2 170 187 440l185 -67q-72 -152 -74 -219q24 -12 45 -30q58 -51 58 -122t-58.5 -122t-141.5 -51q-84 0 -142 51t-59 120z" />
<glyph unicode="&#x2019;" horiz-adv-x="582" d="M132 1059q0 71 58.5 122t141.5 51q84 0 142 -51t59 -120q-2 -170 -188 -440l-184 67q72 152 74 219q-24 12 -45 30q-58 51 -58 122z" />
<glyph unicode="&#x201a;" horiz-adv-x="683" d="M132 171q0 71 58.5 122t141.5 51q84 0 142 -51t59 -120q-2 -170 -188 -440l-184 66q72 153 74 220q-24 12 -45 30q-58 51 -58 122z" />
<glyph unicode="&#x201c;" horiz-adv-x="1143" d="M132 792q2 170 187 440l185 -67q-72 -152 -74 -219q24 -12 45 -30q58 -51 58 -122t-58.5 -122t-141.5 -51q-84 0 -142 51t-59 120zM694 792q2 170 187 440l185 -67q-72 -152 -74 -219q24 -12 45 -30q58 -51 58 -122t-58.5 -122t-141.5 -51q-84 0 -142 51t-59 120z" />
<glyph unicode="&#x201d;" horiz-adv-x="1143" d="M132 1059q0 71 58.5 122t141.5 51q84 0 142 -51t59 -120q-2 -170 -188 -440l-184 67q72 152 74 219q-24 12 -45 30q-58 51 -58 122zM694 1059q0 71 58.5 122t141.5 51q84 0 142 -51t59 -120q-2 -170 -188 -440l-184 67q72 152 74 219q-24 12 -45 30q-58 51 -58 122z" />
<glyph unicode="&#x201e;" horiz-adv-x="1143" d="M132 133q0 71 58.5 122t141.5 51q84 0 142 -51t59 -120q-2 -170 -188 -440l-184 67q72 152 74 219q-24 12 -45 30q-58 51 -58 122zM694 133q0 71 58.5 122t141.5 51q84 0 142 -51t59 -120q-2 -170 -188 -440l-184 67q72 152 74 219q-24 12 -45 30q-58 51 -58 122z" />
<glyph unicode="&#x2022;" horiz-adv-x="764" d="M87 605q0 125 88 213t213 88q124 0 212.5 -88t88.5 -213t-88.5 -213t-212.5 -88q-125 0 -213 88t-88 213z" />
<glyph unicode="&#x2026;" horiz-adv-x="1948" d="M92 163q0 76 54 130t130 54t130 -54t54 -130t-54 -130t-130 -54t-130 54t-54 130zM775 163q0 76 54 130t130 54t130 -54t54 -130t-54 -130t-130 -54t-130 54t-54 130zM1458 163q0 76 54 130t130 54t130 -54t54 -130t-54 -130t-130 -54t-130 54t-54 130z" />
<glyph unicode="&#x202f;" horiz-adv-x="317" />
<glyph unicode="&#x2039;" horiz-adv-x="725" d="M76 492v227l575 374v-305l-267 -182l267 -183v-299z" />
<glyph unicode="&#x203a;" horiz-adv-x="725" d="M76 124v299l267 183l-267 182v305l575 -374v-227z" />
<glyph unicode="&#x205f;" horiz-adv-x="396" />
<glyph unicode="&#x20ac;" horiz-adv-x="962" d="M22 417v161h145v53h-145v161h145v70q0 187 102 278q104 92 322 92q246 0 347 -118v-255h-296v3q0 37 -6 44q-7 6 -45 6t-45 -6q-6 -7 -6 -44v-70h307v-161h-307v-53h307v-161h-307v-69q0 -37 6 -43q7 -7 45 -7t45 7q6 6 6 43v2h296v-253q-101 -118 -347 -118 q-218 0 -322 92q-102 90 -102 277v69h-145z" />
<glyph unicode="&#x2122;" horiz-adv-x="1280" d="M7 1137v137h474v-137h-132v-383h-209v383h-133zM511 754v520h236l109 -280l110 280h235v-520h-202v217l-79 -217h-127l-80 217v-217h-202z" />
<glyph unicode="&#x25fc;" horiz-adv-x="835" d="M0 0v835h835v-835h-835z" />
</font>
</defs>
</svg>
